Асиенда.ру
Перейти на неадаптивную версию сайта
Опубликовал KurskFazenda в группе Обсуждение проекта

Не обрабатывается видео на "видеотеке".

Хотел загрузить короткое видео (информация о файле ниже, в отчёте MediaInfo) на https://www.videoreka.ru/upload/video, однако,

[code]General
Complete name : 2 десятка воробьёв ест пшено_VID20230119155347 (online-video-cutter.com).mp4
Format : MPEG-4
Format profile : Base Media
Codec ID : isom (isom/iso2/avc1/mp41)
File size : 201 MiB
Duration : 1 min 57 s
Overall bit rate mode : Variable
Overall bit rate : 14.4 Mb/s
Writing application : Lavf59.27.100

Video
ID : 2
Format : AVC
Format/Info : Advanced Video Codec
Format profile : High@L4
Format settings : CABAC / 4 Ref Frames
Format settings, CABAC : Yes
Format settings, Reference frames : 4 frames
Codec ID : avc1
Codec ID/Info : Advanced Video Coding
Duration : 1 min 57 s
Bit rate : 14.3 Mb/s
Width : 1 920 pixels
Height : 1 080 pixels
Display aspect ratio : 16:9
Frame rate mode : Constant
Frame rate : 30.000 FPS
Color space : YUV
Chroma subsampling : 4:2:0
Bit depth : 8 bits
Scan type : Progressive
Bits/ (Pixel*Frame) : 0.230
Stream size : 200 MiB (99%)
Writing library : x264 core 155 r2917 0a84d98
Encoding settings : cabac=1 / ref=1 / deblock=1:0:0 / analyse=0x3:0x3 / me=dia / subme=1 / psy=1 / psy_rd=1.00:0.00 / mixed_ref=0 / me_range=16 / chroma_me=1 / trellis=0 / 8x8dct=1 / cqm=0 / deadzone=21,11 / fast_pskip=1 / chroma_qp_offset=0 / threads=34 / lookahead_threads=5 / sliced_threads=0 / nr=0 / decimate=1 / interlaced=0 / bluray_compat=0 / constrained_intra=0 / bframes=3 / b_pyramid=2 / b_adapt=1 / b_bias=0 / direct=1 / weightb=1 / open_gop=0 / weightp=1 / keyint=250 / keyint_min=25 / scenecut=40 / intra_refresh=0 / rc=crf / mbtree=0 / crf=20.0 / qcomp=0.60 / qpmin=0 / qpmax=69 / qpstep=4 / ip_ratio=1.40 / pb_ratio=1.30 / aq=1:1.00
Color range : Limited
Color primaries : BT.601 PAL
Codec configuration box : avcC

Audio
ID : 1
Format : AAC LC
Format/Info : Advanced Audio Codec Low Complexity
Codec ID : 2 / 40 / mp4a-40-2
Duration : 1 min 56 s
Source duration : 1 min 56 s
Source_Duration_LastFrame : -19 ms
Bit rate mode : Variable
Bit rate : 128 kb/s
Channel (s) : 2 channels
Channel layout : L R
Sampling rate : 48.0 kHz
Frame rate : 46.875 FPS (1024 SPF)
Compression mode : Lossy
Stream size : 1.77 MiB (1%)
Source stream size : 1.77 MiB (1%)
Default : Yes
Alternate group : 1
[/code]

А. "Видеорека". Прочитал вначале "видеотека".

Рейтинг поста:  +3 Не понравилось Понравилось
KurskFazenda
Садовод 2 уровня
Курск
23 января в 13:16
1
268






Комментарии:

Написать комментарий

Будённовск
23 января в 13:39
 
Посмотри раздел "Помощь", там есть пошаговая инструкция как добавить видео в запись https://www.asienda.ru/help/kak-dobavit-video-v-zapis.html

По поводу женского пола...на своей страничке (где аватарка) нажимаешь слово "редактировать" и в выпадающем окне отмечаешь свой пол и не забудь нажать кнопку "сохранить"

KurskFazenda (автор поста)
Курск
23 января в 14:03
 
Та це понятно. Трабл с видеорекой именно.
По поводу пола. Догнал только сейчас. Сайты-то позиционируются как женские, вот и пол женский стоит по дефолту?
UPD: вот такая фигня:


Будённовск
23 января в 14:09
 
KurskFazenda пишет:
с видеорекой именно.
видеорека уже давно не работает. Во всяком случае, я давно пыталась добавить через неё - не получилось

KurskFazenda (автор поста)
Курск
23 января в 14:21
 
Так от оно чо..

Саратов
23 января в 18:03
+1  
Здравствуйте! По поводу некорректной работы на Видеореке лучше всего обратиться к разработчикам именно данного сайта. Внизу страницы на сайте Видеорека, кликабельная ссылка обратная связь, или попробуйте по ссылке https://www.videoreka.ru/feedback

KurskFazenda (автор поста)
Курск
23 января в 18:12
 
" Ваше сообщение упешно отправлено. Мы ответим на него в скором времени!".

Саратов
24 января в 16:06
 
Значит, ожидайте!


Оставить свой комментарий

B i "
Отправить